torrents rarbg
Catalog Top 10

RARBG
Home
Movies
XXX
TV Shows
Games
Music
Anime
Apps
Doc
Other
Non XXX

[Sokudo] The Apothecary Diaries [1080p BD AV1][dual audio]

Torrent:


[Sokudo] The Apothecary Diaries [1080p BD AV1][dual audio]
VPN:
Downloading torrents is getting riskier every day. Use a VPN to make yourself hidden while downloading torrents.
By using a VPN , your ISP and Government Agencies will not be able to spy on you, neither would they be able to track your online activity!
Description:


encoder: svt-av1-psy
audio: jpn, eng
subs: eng, eng signs+songs

Code:

Video
ID : 1
Format : AV1
Format/Info : AOMedia Video 1
Format profile : [email protected]
Codec ID : V_AV1
Duration : 22 min 49 s
Bit rate : 1 048 kb/s
Width : 1 920 pixels
Height : 1 080 pixels
Display aspect ratio : 16:9
Frame rate mode : Constant
Frame rate : 23.976 (24000/1001) FPS
Color space : YUV
Chroma subsampling : 4:2:0
Bit depth : 10 bits
Bits/(Pixel*Frame) : 0.021
Stream size : 171 MiB (77%)
Default : No
Forced : No
Color range : Limited
Color primaries : BT.709
Transfer characteristics : BT.709
Matrix coefficients : BT.709

Audio #1
ID : 2
Format : Opus
Codec ID : A_OPUS
Duration : 22 min 49 s
Bit rate : 126 kb/s
Channel(s) : 2 channels
Channel layout : L R
Sampling rate : 48.0 kHz
Frame rate : 50.000 FPS (960 SPF)
Compression mode : Lossy
Stream size : 20.6 MiB (9%)
Writing library : opusenc from opus-tools 0.2
Language : Japanese
Default : Yes
Forced : No
ENCODER_OPTIONS : --bitrate 128

Audio #2
ID : 3
Format : AAC LC
Format/Info : Advanced Audio Codec Low Complexity
Codec ID : A_AAC-2
Duration : 22 min 50 s
Bit rate : 128 kb/s
Channel(s) : 2 channels
Channel layout : L R
Sampling rate : 44.1 kHz
Frame rate : 43.066 FPS (1024 SPF)
Compression mode : Lossy
Stream size : 20.9 MiB (9%)
Language : English
Default : Yes
Forced : No

Text #1
ID : 4
Format : ASS
Codec ID : S_TEXT/ASS
Codec ID/Info : Advanced Sub Station Alpha
Duration : 22 min 45 s
Bit rate : 9 958 b/s
Frame rate : 3.945 FPS
Count of elements : 5387
Compression mode : Lossless
Stream size : 1.62 MiB (1%)
Title : Full Subtitles [MTBB]
Language : English
Default : Yes
Forced : No

Text #2
ID : 5
Format : ASS
Codec ID : S_TEXT/ASS
Codec ID/Info : Advanced Sub Station Alpha
Duration : 22 min 45 s
Bit rate : 9 958 b/s
Frame rate : 3.945 FPS
Count of elements : 5387
Compression mode : Lossless
Stream size : 1.62 MiB (1%)
Title : Honorifics [MTBB]
Language : enm
Default : No
Forced : No

Text #3
ID : 6
Format : ASS
Codec ID : S_TEXT/ASS
Codec ID/Info : Advanced Sub Station Alpha
Duration : 22 min 45 s
Bit rate : 9 849 b/s
Frame rate : 3.752 FPS
Count of elements : 5123
Compression mode : Lossless
Stream size : 1.60 MiB (1%)
Title : Signs/Songs [MTBB]
Language : English
Default : No
Forced : Yes

Menu
00:00:00.000 : Opening
00:01:30.008 : Part A
00:13:45.993 : Part B
00:21:04.973 : Ending
00:22:34.980 : Preview





Downloads: 106
Category: Anime/Dual Audio
Size: 2.4 GB
Show Files ┬╗
files
Added: 2024-05-13 01:01:04
Language: English
Peers: Seeders : 54 , Leechers : 27
Release name: [Sokudo] The Apothecary Diaries [1080p BD AV1][dual audio]
Trackers:

http://nyaa.tracker.wf:7777/announce

udp://open.stealth.si:80/announce000

udp://exodus.desync.com:6969/announce

udp://tracker.cyberia.is:6969/announce

udp://tracker.opentrackr.org:1337/announce

udp://tracker.torrent.eu.org:451/announce

udp://explodie.org:6969/announce

udp://tracker.birkenwald.de:6969/announce

udp://tracker.moeking.me:6969/announce

udp://ipv4.tracker.harry.lu:80/announce

udp://9.rarbg.to:2780/announce

udp://vibe.sleepyinternetfun.xyz:1738/announce

udp://tracker.leech.ie:1337/announce

udp://tracker.bitsearch.to:1337/announce

udp://tracker.pomf.se:80/announce

Download: [Sokudo] The Apothecary Diaries [1080p BD AV1][dual audio]




By using this site you agree to and accept our user agreement. If you havent read the user agreement please do so here