torrents rarbg
Catalog Top 10

RARBG
Home
Movies
XXX
TV Shows
Games
Music
Anime
Apps
Doc
Other
Non XXX

Indian.Police.Force.2024.S01.2160p.AMZN.WEB-DL.MULTi.DD+5.1.H.265-TheBiscuitMan

Torrent:


Indian.Police.Force.2024.S01.2160p.AMZN.WEB-DL.MULTi.DD+5.1.H.265-TheBiscuitMan
VPN:
Downloading torrents is getting riskier every day. Use a VPN to make yourself hidden while downloading torrents.
By using a VPN , your ISP and Government Agencies will not be able to spy on you, neither would they be able to track your online activity!
Description:

==============================================================

==============================================================
Indian.Police.Force.2024.S01E01.Delhi.Police.Raising.Day.2160p.AMZN.WEB-DL.MULTi.DD+5.1.H.265-TheBiscuitMan
==============================================================
IMDB | TMDB | TvDB | SEASON TRAILER
==============================================================
Video: HEVC | 3840x2080 25fps | 13.8 Mb/s
Audio #1: Hindi | E-AC-3 | Enhanced AC-3 | 640 kb/s | DD+5.1 | 6 channels
Audio #2: English | E-AC-3 | Enhanced AC-3 | 640 kb/s | DD+5.1 | 6 channels
Audio #3: Tamil | E-AC-3 | Enhanced AC-3 | 640 kb/s | DD+5.1 | 6 channels
Audio #4: Telugu | E-AC-3 | Enhanced AC-3 | 640 kb/s | DD+5.1 | 6 channels
Audio #5: Malayalam | E-AC-3 | Enhanced AC-3 | 640 kb/s | DD+5.1 | 6 channels
Audio #6: Kannada | E-AC-3 | Enhanced AC-3 | 640 kb/s | DD+5.1 | 6 channels
Subtitle: Arabic (Forced) | German (Forced) | Latin American (Forced) | European (Forced) | European (Forced) | Forced | Forced | Forced (Kannada) | Forced (Malayalam) | Forced (Polish) | Brazilian (Forced) | Forced (Tamil) | Forced (Telugu) | Forced (Turkish) | Arabic | Czech | Danish | German | Greek | English | Latin American | European | Finnish | Filipino | European | Hebrew | SDH (Hindi) | Hungarian | Indonesian | Italian | Japanese | Kannada | Korean | Malayalam | Malay | Norwegian Bokmal | Dutch | Polish | Brazilian | European | Romanian | Russian | Swedish | Tamil | Telugu | Thai | Turkish | Ukraine (Ukrainian) | Vietnam (Vietnamese) | Simplified (Chinese) | Traditional (Chinese)
Chapters: Numbered
Size: 4.29 GiB | Duration: 34min 49s
==============================================================
Posted by: xCLuMsYx | Date: 19/01/2024
==============================================================



More Poster's



Code:

General
Unique ID : 82644668141654698982433105189446987596 (0x3E2CC8BB8CF7A01107C845A93735AF4C)
Complete name : Indian.Police.Force.2024.S01E01.Delhi.Police.Raising.Day.2160p.AMZN.WEB-DL.MULTi.DD+5.1.H.265-TheBiscuitMan.mkv
Format : Matroska
Format version : Version 4
File size : 4.29 GiB
Duration : 34 min 49 s
Overall bit rate : 17.6 Mb/s
Frame rate : 25.000 FPS
Writing application : mkvmerge v82.0 ('I'm The President') 64-bit
Writing library : libebml v1.4.5 + libmatroska v1.7.1

Video
ID : 1
Format : HEVC
Format/Info : High Efficiency Video Coding
Format profile : Main@L5@Main
Codec ID : V_MPEGH/ISO/HEVC
Duration : 34 min 49 s
Bit rate : 13.8 Mb/s
Width : 3 840 pixels
Height : 2 080 pixels
Display aspect ratio : 1.85:1
Frame rate mode : Constant
Frame rate : 25.000 FPS
Color space : YUV
Chroma subsampling : 4:2:0
Bit depth : 8 bits
Bits/(Pixel*Frame) : 0.069
Stream size : 3.36 GiB (78%)
Default : Yes
Forced : No
Color range : Limited
Color primaries : BT.709
Transfer characteristics : BT.709
Matrix coefficients : BT.709

Audio #1
ID : 2
Format : E-AC-3
Format/Info : Enhanced AC-3
Commercial name : Dolby Digital Plus
Codec ID : A_EAC3
Duration : 34 min 49 s
Bit rate mode : Constant
Bit rate : 640 kb/s
Channel(s) : 6 channels
Channel layout : L R C LFE Ls Rs
Sampling rate : 48.0 kHz
Frame rate : 31.250 FPS (1536 SPF)
Compression mode : Lossy
Stream size : 159 MiB (4%)
Language : Hindi
Service kind : Complete Main
Default : Yes
Forced : No

Audio #2
ID : 3
Format : E-AC-3
Format/Info : Enhanced AC-3
Commercial name : Dolby Digital Plus
Codec ID : A_EAC3
Duration : 34 min 49 s
Bit rate mode : Constant
Bit rate : 640 kb/s
Channel(s) : 6 channels
Channel layout : L R C LFE Ls Rs
Sampling rate : 48.0 kHz
Frame rate : 31.250 FPS (1536 SPF)
Compression mode : Lossy
Stream size : 159 MiB (4%)
Language : English
Service kind : Complete Main
Default : No
Forced : No

Audio #3
ID : 4
Format : E-AC-3
Format/Info : Enhanced AC-3
Commercial name : Dolby Digital Plus
Codec ID : A_EAC3
Duration : 34 min 49 s
Bit rate mode : Constant
Bit rate : 640 kb/s
Channel(s) : 6 channels
Channel layout : L R C LFE Ls Rs
Sampling rate : 48.0 kHz
Frame rate : 31.250 FPS (1536 SPF)
Compression mode : Lossy
Stream size : 159 MiB (4%)
Language : Tamil
Service kind : Complete Main
Default : No
Forced : No

Audio #4
ID : 5
Format : E-AC-3
Format/Info : Enhanced AC-3
Commercial name : Dolby Digital Plus
Codec ID : A_EAC3
Duration : 34 min 49 s
Bit rate mode : Constant
Bit rate : 640 kb/s
Channel(s) : 6 channels
Channel layout : L R C LFE Ls Rs
Sampling rate : 48.0 kHz
Frame rate : 31.250 FPS (1536 SPF)
Compression mode : Lossy
Stream size : 159 MiB (4%)
Language : Telugu
Service kind : Complete Main
Default : No
Forced : No

Audio #5
ID : 6
Format : E-AC-3
Format/Info : Enhanced AC-3
Commercial name : Dolby Digital Plus
Codec ID : A_EAC3
Duration : 34 min 49 s
Bit rate mode : Constant
Bit rate : 640 kb/s
Channel(s) : 6 channels
Channel layout : L R C LFE Ls Rs
Sampling rate : 48.0 kHz
Frame rate : 31.250 FPS (1536 SPF)
Compression mode : Lossy
Stream size : 159 MiB (4%)
Language : Malayalam
Service kind : Complete Main
Default : No
Forced : No

Audio #6
ID : 7
Format : E-AC-3
Format/Info : Enhanced AC-3
Commercial name : Dolby Digital Plus
Codec ID : A_EAC3
Duration : 34 min 49 s
Bit rate mode : Constant
Bit rate : 640 kb/s
Channel(s) : 6 channels
Channel layout : L R C LFE Ls Rs
Sampling rate : 48.0 kHz
Frame rate : 31.250 FPS (1536 SPF)
Compression mode : Lossy
Stream size : 159 MiB (4%)
Language : Kannada
Service kind : Complete Main
Default : No
Forced : No

Text #1
ID : 8
Format : UTF-8
Codec ID : S_TEXT/UTF8
Codec ID/Info : UTF-8 Plain Text
Duration : 24 min 33 s
Bit rate : 3 b/s
Frame rate : 0.011 FPS
Count of elements : 16
Stream size : 625 Bytes (0%)
Title : Forced
Language : Arabic
Default : No
Forced : Yes

Text #2
ID : 9
Format : UTF-8
Codec ID : S_TEXT/UTF8
Codec ID/Info : UTF-8 Plain Text
Duration : 19 min 11 s
Bit rate : 1 b/s
Frame rate : 0.009 FPS
Count of elements : 10
Stream size : 226 Bytes (0%)
Title : Forced
Language : German
Default : No
Forced : Yes

Text #3
ID : 10
Format : UTF-8
Codec ID : S_TEXT/UTF8
Codec ID/Info : UTF-8 Plain Text
Duration : 19 min 11 s
Bit rate : 2 b/s
Frame rate : 0.010 FPS
Count of elements : 12
Stream size : 365 Bytes (0%)
Title : Latin American (Forced)
Language : Spanish
Default : No
Forced : Yes

Text #4
ID : 11
Format : UTF-8
Codec ID : S_TEXT/UTF8
Codec ID/Info : UTF-8 Plain Text
Duration : 24 min 30 s
Bit rate : 1 b/s
Frame rate : 0.007 FPS
Count of elements : 11
Stream size : 321 Bytes (0%)
Title : European (Forced)
Language : Spanish
Default : No
Forced : Yes

Text #5
ID : 12
Format : UTF-8
Codec ID : S_TEXT/UTF8
Codec ID/Info : UTF-8 Plain Text
Duration : 24 min 34 s
Bit rate : 1 b/s
Frame rate : 0.006 FPS
Count of elements : 9
Stream size : 217 Bytes (0%)
Title : European (Forced)
Language : French
Default : No
Forced : Yes

Text #6
ID : 13
Format : UTF-8
Codec ID : S_TEXT/UTF8
Codec ID/Info : UTF-8 Plain Text
Duration : 24 min 30 s
Bit rate : 1 b/s
Frame rate : 0.007 FPS
Count of elements : 10
Stream size : 218 Bytes (0%)
Title : Forced
Language : Italian
Default : No
Forced : Yes

Text #7
ID : 14
Format : UTF-8
Codec ID : S_TEXT/UTF8
Codec ID/Info : UTF-8 Plain Text
Duration : 24 min 32 s
Bit rate : 1 b/s
Frame rate : 0.008 FPS
Count of elements : 12
Stream size : 294 Bytes (0%)
Title : Forced
Language : Japanese
Default : No
Forced : Yes

Text #8
ID : 15
Format : UTF-8
Codec ID : S_TEXT/UTF8
Codec ID/Info : UTF-8 Plain Text
Duration : 24 min 44 s
Bit rate : 12 b/s
Frame rate : 0.015 FPS
Count of elements : 23
Stream size : 2.29 KiB (0%)
Title : Forced
Language : Kannada
Default : No
Forced : Yes

Text #9
ID : 16
Format : UTF-8
Codec ID : S_TEXT/UTF8
Codec ID/Info : UTF-8 Plain Text
Duration : 30 min 46 s
Bit rate : 33 b/s
Frame rate : 0.043 FPS
Count of elements : 79
Stream size : 7.45 KiB (0%)
Title : Forced
Language : Malayalam
Default : No
Forced : Yes

Text #10
ID : 17
Format : UTF-8
Codec ID : S_TEXT/UTF8
Codec ID/Info : UTF-8 Plain Text
Duration : 18 min 41 s
Bit rate : 0 b/s
Frame rate : 0.004 FPS
Count of elements : 4
Stream size : 91.0 Bytes (0%)
Title : Forced
Language : Polish
Default : No
Forced : Yes

Text #11
ID : 18
Format : UTF-8
Codec ID : S_TEXT/UTF8
Codec ID/Info : UTF-8 Plain Text
Duration : 19 min 11 s
Bit rate : 1 b/s
Frame rate : 0.007 FPS
Count of elements : 8
Stream size : 237 Bytes (0%)
Title : Brazilian (Forced)
Language : Portuguese
Default : No
Forced : Yes

Text #12
ID : 19
Format : UTF-8
Codec ID : S_TEXT/UTF8
Codec ID/Info : UTF-8 Plain Text
Duration : 30 min 46 s
Bit rate : 11 b/s
Frame rate : 0.014 FPS
Count of elements : 26
Stream size : 2.69 KiB (0%)
Title : Forced
Language : Tamil
Default : No
Forced : Yes

Text #13
ID : 20
Format : UTF-8
Codec ID : S_TEXT/UTF8
Codec ID/Info : UTF-8 Plain Text
Duration : 30 min 46 s
Bit rate : 12 b/s
Frame rate : 0.015 FPS
Count of elements : 27
Stream size : 2.89 KiB (0%)
Title : Forced
Language : Telugu
Default : No
Forced : Yes

Text #14
ID : 21
Format : UTF-8
Codec ID : S_TEXT/UTF8
Codec ID/Info : UTF-8 Plain Text
Duration : 24 min 30 s
Bit rate : 1 b/s
Frame rate : 0.007 FPS
Count of elements : 11
Stream size : 245 Bytes (0%)
Title : Forced
Language : Turkish
Default : No
Forced : Yes

Text #15
ID : 22
Format : UTF-8
Codec ID : S_TEXT/UTF8
Codec ID/Info : UTF-8 Plain Text
Duration : 32 min 58 s
Bit rate : 87 b/s
Frame rate : 0.175 FPS
Count of elements : 346
Stream size : 21.2 KiB (0%)
Language : Arabic
Default : No
Forced : No

Text #16
ID : 23
Format : UTF-8
Codec ID : S_TEXT/UTF8
Codec ID/Info : UTF-8 Plain Text
Duration : 32 min 58 s
Bit rate : 49 b/s
Frame rate : 0.174 FPS
Count of elements : 344
Stream size : 12.0 KiB (0%)
Language : Czech
Default : No
Forced : No

Text #17
ID : 24
Format : UTF-8
Codec ID : S_TEXT/UTF8
Codec ID/Info : UTF-8 Plain Text
Duration : 32 min 58 s
Bit rate : 47 b/s
Frame rate : 0.171 FPS
Count of elements : 339
Stream size : 11.4 KiB (0%)
Language : Danish
Default : No
Forced : No

Text #18
ID : 25
Format : UTF-8
Codec ID : S_TEXT/UTF8
Codec ID/Info : UTF-8 Plain Text
Duration : 32 min 58 s
Bit rate : 47 b/s
Frame rate : 0.172 FPS
Count of elements : 340
Stream size : 11.5 KiB (0%)
Language : German
Default : No
Forced : No

Text #19
ID : 26
Format : UTF-8
Codec ID : S_TEXT/UTF8
Codec ID/Info : UTF-8 Plain Text
Duration : 32 min 58 s
Bit rate : 83 b/s
Frame rate : 0.175 FPS
Count of elements : 346
Stream size : 20.3 KiB (0%)
Language : Greek
Default : No
Forced : No

Text #20
ID : 27
Format : UTF-8
Codec ID : S_TEXT/UTF8
Codec ID/Info : UTF-8 Plain Text
Duration : 27 min 48 s
Bit rate : 58 b/s
Frame rate : 0.254 FPS
Count of elements : 424
Stream size : 12.0 KiB (0%)
Language : English
Default : Yes
Forced : No

Text #21
ID : 28
Format : UTF-8
Codec ID : S_TEXT/UTF8
Codec ID/Info : UTF-8 Plain Text
Duration : 32 min 58 s
Bit rate : 48 b/s
Frame rate : 0.173 FPS
Count of elements : 342
Stream size : 11.7 KiB (0%)
Title : Latin American
Language : Spanish
Default : No
Forced : No

Text #22
ID : 29
Format : UTF-8
Codec ID : S_TEXT/UTF8
Codec ID/Info : UTF-8 Plain Text
Duration : 32 min 58 s
Bit rate : 48 b/s
Frame rate : 0.172 FPS
Count of elements : 341
Stream size : 11.7 KiB (0%)
Title : European
Language : Spanish
Default : No
Forced : No

Text #23
ID : 30
Format : UTF-8
Codec ID : S_TEXT/UTF8
Codec ID/Info : UTF-8 Plain Text
Duration : 32 min 58 s
Bit rate : 47 b/s
Frame rate : 0.171 FPS
Count of elements : 338
Stream size : 11.5 KiB (0%)
Language : Finnish
Default : No
Forced : No

Text #24
ID : 31
Format : UTF-8
Codec ID : S_TEXT/UTF8
Codec ID/Info : UTF-8 Plain Text
Duration : 30 min 19 s
Bit rate : 54 b/s
Frame rate : 0.183 FPS
Count of elements : 332
Stream size : 12.1 KiB (0%)
Language : Filipino
Default : No
Forced : No

Text #25
ID : 32
Format : UTF-8
Codec ID : S_TEXT/UTF8
Codec ID/Info : UTF-8 Plain Text
Duration : 32 min 58 s
Bit rate : 47 b/s
Frame rate : 0.173 FPS
Count of elements : 342
Stream size : 11.4 KiB (0%)
Title : European
Language : French
Default : No
Forced : No

Text #26
ID : 33
Format : UTF-8
Codec ID : S_TEXT/UTF8
Codec ID/Info : UTF-8 Plain Text
Duration : 32 min 58 s
Bit rate : 80 b/s
Frame rate : 0.175 FPS
Count of elements : 346
Stream size : 19.5 KiB (0%)
Language : Hebrew
Default : No
Forced : No

Text #27
ID : 34
Format : UTF-8
Codec ID : S_TEXT/UTF8
Codec ID/Info : UTF-8 Plain Text
Duration : 30 min 30 s
Bit rate : 140 b/s
Frame rate : 0.245 FPS
Count of elements : 448
Stream size : 31.4 KiB (0%)
Title : SDH
Language : Hindi
Default : No
Forced : No

Text #28
ID : 35
Format : UTF-8
Codec ID : S_TEXT/UTF8
Codec ID/Info : UTF-8 Plain Text
Duration : 32 min 58 s
Bit rate : 52 b/s
Frame rate : 0.173 FPS
Count of elements : 342
Stream size : 12.7 KiB (0%)
Language : Hungarian
Default : No
Forced : No

Text #29
ID : 36
Format : UTF-8
Codec ID : S_TEXT/UTF8
Codec ID/Info : UTF-8 Plain Text
Duration : 32 min 58 s
Bit rate : 49 b/s
Frame rate : 0.173 FPS
Count of elements : 342
Stream size : 11.9 KiB (0%)
Language : Indonesian
Default : No
Forced : No

Text #30
ID : 37
Format : UTF-8
Codec ID : S_TEXT/UTF8
Codec ID/Info : UTF-8 Plain Text
Duration : 32 min 58 s
Bit rate : 48 b/s
Frame rate : 0.172 FPS
Count of elements : 341
Stream size : 11.7 KiB (0%)
Language : Italian
Default : No
Forced : No

Text #31
ID : 38
Format : UTF-8
Codec ID : S_TEXT/UTF8
Codec ID/Info : UTF-8 Plain Text
Duration : 32 min 58 s
Bit rate : 40 b/s
Frame rate : 0.188 FPS
Count of elements : 371
Stream size : 9.76 KiB (0%)
Language : Japanese
Default : No
Forced : No

Text #32
ID : 39
Format : UTF-8
Codec ID : S_TEXT/UTF8
Codec ID/Info : UTF-8 Plain Text
Duration : 33 min 8 s
Bit rate : 134 b/s
Frame rate : 0.180 FPS
Count of elements : 357
Stream size : 32.7 KiB (0%)
Language : Kannada
Default : No
Forced : No

Text #33
ID : 40
Format : UTF-8
Codec ID : S_TEXT/UTF8
Codec ID/Info : UTF-8 Plain Text
Duration : 32 min 58 s
Bit rate : 49 b/s
Frame rate : 0.175 FPS
Count of elements : 346
Stream size : 11.8 KiB (0%)
Language : Korean
Default : No
Forced : No

Text #34
ID : 41
Format : UTF-8
Codec ID : S_TEXT/UTF8
Codec ID/Info : UTF-8 Plain Text
Duration : 33 min 8 s
Bit rate : 157 b/s
Frame rate : 0.180 FPS
Count of elements : 357
Stream size : 38.3 KiB (0%)
Language : Malayalam
Default : No
Forced : No

Text #35
ID : 42
Format : UTF-8
Codec ID : S_TEXT/UTF8
Codec ID/Info : UTF-8 Plain Text
Duration : 32 min 58 s
Bit rate : 51 b/s
Frame rate : 0.173 FPS
Count of elements : 342
Stream size : 12.3 KiB (0%)
Language : Malay
Default : No
Forced : No

Text #36
ID : 43
Format : UTF-8
Codec ID : S_TEXT/UTF8
Codec ID/Info : UTF-8 Plain Text
Duration : 32 min 58 s
Bit rate : 47 b/s
Frame rate : 0.172 FPS
Count of elements : 341
Stream size : 11.4 KiB (0%)
Language : Norwegian Bokmal
Default : No
Forced : No

Text #37
ID : 44
Format : UTF-8
Codec ID : S_TEXT/UTF8
Codec ID/Info : UTF-8 Plain Text
Duration : 32 min 58 s
Bit rate : 45 b/s
Frame rate : 0.172 FPS
Count of elements : 340
Stream size : 10.9 KiB (0%)
Language : Dutch
Default : No
Forced : No

Text #38
ID : 45
Format : UTF-8
Codec ID : S_TEXT/UTF8
Codec ID/Info : UTF-8 Plain Text
Duration : 32 min 58 s
Bit rate : 47 b/s
Frame rate : 0.173 FPS
Count of elements : 342
Stream size : 11.5 KiB (0%)
Language : Polish
Default : No
Forced : No

Text #39
ID : 46
Format : UTF-8
Codec ID : S_TEXT/UTF8
Codec ID/Info : UTF-8 Plain Text
Duration : 32 min 58 s
Bit rate : 46 b/s
Frame rate : 0.173 FPS
Count of elements : 342
Stream size : 11.1 KiB (0%)
Title : Brazilian
Language : Portuguese
Default : No
Forced : No

Text #40
ID : 47
Format : UTF-8
Codec ID : S_TEXT/UTF8
Codec ID/Info : UTF-8 Plain Text
Duration : 32 min 58 s
Bit rate : 51 b/s
Frame rate : 0.172 FPS
Count of elements : 340
Stream size : 12.4 KiB (0%)
Title : European
Language : Portuguese
Default : No
Forced : No

Text #41
ID : 48
Format : UTF-8
Codec ID : S_TEXT/UTF8
Codec ID/Info : UTF-8 Plain Text
Duration : 32 min 58 s
Bit rate : 52 b/s
Frame rate : 0.173 FPS
Count of elements : 342
Stream size : 12.6 KiB (0%)
Language : Romanian
Default : No
Forced : No

Text #42
ID : 49
Format : UTF-8
Codec ID : S_TEXT/UTF8
Codec ID/Info : UTF-8 Plain Text
Duration : 32 min 58 s
Bit rate : 78 b/s
Frame rate : 0.175 FPS
Count of elements : 346
Stream size : 19.0 KiB (0%)
Language : Russian
Default : No
Forced : No

Text #43
ID : 50
Format : UTF-8
Codec ID : S_TEXT/UTF8
Codec ID/Info : UTF-8 Plain Text
Duration : 32 min 39 s
Bit rate : 48 b/s
Frame rate : 0.173 FPS
Count of elements : 339
Stream size : 11.5 KiB (0%)
Language : Swedish
Default : No
Forced : No

Text #44
ID : 51
Format : UTF-8
Codec ID : S_TEXT/UTF8
Codec ID/Info : UTF-8 Plain Text
Duration : 33 min 8 s
Bit rate : 131 b/s
Frame rate : 0.180 FPS
Count of elements : 357
Stream size : 31.9 KiB (0%)
Language : Tamil
Default : No
Forced : No

Text #45
ID : 52
Format : UTF-8
Codec ID : S_TEXT/UTF8
Codec ID/Info : UTF-8 Plain Text
Duration : 33 min 8 s
Bit rate : 134 b/s
Frame rate : 0.180 FPS
Count of elements : 357
Stream size : 32.7 KiB (0%)
Language : Telugu
Default : No
Forced : No

Text #46
ID : 53
Format : UTF-8
Codec ID : S_TEXT/UTF8
Codec ID/Info : UTF-8 Plain Text
Duration : 32 min 58 s
Bit rate : 120 b/s
Frame rate : 0.175 FPS
Count of elements : 346
Stream size : 29.1 KiB (0%)
Language : Thai
Default : No
Forced : No

Text #47
ID : 54
Format : UTF-8
Codec ID : S_TEXT/UTF8
Codec ID/Info : UTF-8 Plain Text
Duration : 32 min 58 s
Bit rate : 48 b/s
Frame rate : 0.173 FPS
Count of elements : 342
Stream size : 11.8 KiB (0%)
Language : Turkish
Default : No
Forced : No

Text #48
ID : 55
Format : UTF-8
Codec ID : S_TEXT/UTF8
Codec ID/Info : UTF-8 Plain Text
Duration : 32 min 58 s
Bit rate : 80 b/s
Frame rate : 0.175 FPS
Count of elements : 346
Stream size : 19.4 KiB (0%)
Title : Ukraine
Language : Ukrainian
Default : No
Forced : No

Text #49
ID : 56
Format : UTF-8
Codec ID : S_TEXT/UTF8
Codec ID/Info : UTF-8 Plain Text
Duration : 32 min 58 s
Bit rate : 59 b/s
Frame rate : 0.173 FPS
Count of elements : 342
Stream size : 14.4 KiB (0%)
Title : Vietnam
Language : Vietnamese
Default : No
Forced : No

Text #50
ID : 57
Format : UTF-8
Codec ID : S_TEXT/UTF8
Codec ID/Info : UTF-8 Plain Text
Duration : 32 min 58 s
Bit rate : 52 b/s
Frame rate : 0.175 FPS
Count of elements : 346
Stream size : 12.7 KiB (0%)
Title : Simplified
Language : Chinese
Default : No
Forced : No

Text #51
ID : 58
Format : UTF-8
Codec ID : S_TEXT/UTF8
Codec ID/Info : UTF-8 Plain Text
Duration : 32 min 58 s
Bit rate : 47 b/s
Frame rate : 0.175 FPS
Count of elements : 346
Stream size : 11.5 KiB (0%)
Title : Traditional
Language : Chinese
Default : No
Forced : No

Menu
00:00:00.000 : en:Studio Logo
00:00:06.000 : en:Disclaimer
00:00:18.000 : en:Scene 3
00:01:54.000 : en:Title Sequence
00:02:55.000 : en:Scene 5
00:05:38.000 : en:Scene 6
00:07:35.000 : en:Scene 7
00:09:04.000 : en:Scene 8
00:10:12.000 : en:Scene 9
00:12:13.000 : en:Scene 10
00:14:00.000 : en:Scene 11
00:14:50.000 : en:Scene 12
00:18:32.000 : en:Scene 13
00:21:04.000 : en:Scene 14
00:21:33.000 : en:Scene 15
00:22:43.000 : en:Scene 16
00:24:45.000 : en:Scene 17
00:27:04.000 : en:Scene 18
00:29:58.000 : en:Scene 19
00:31:18.000 : en:End Credits












Downloads: 192
Category: TV/HEVC/x265
Size: 33.6 GB
Show Files ยป
files
Added: 2024-01-20 13:03:55
Language: Hindi
Peers: Seeders : 18 , Leechers : 26
Tags: Action Crime Adventure tt19768024 
Release name: Indian.Police.Force.2024.S01.2160p.AMZN.WEB-DL.MULTi.DD+5.1.H.265-TheBiscuitMan
Trackers:

udp://tracker.opentrackr.org:1337/announce

udp://opentracker.i2p.rocks:6969/announce

https://opentracker.i2p.rocks:443/announce

udp://tracker.openbittorrent.com:6969/announce

http://tracker.openbittorrent.com:80/announce

udp://open.demonii.com:1337/announce

udp://exodus.desync.com:6969/announce

udp://open.stealth.si:80/announce

udp://tracker.torrent.eu.org:451/announce

udp://tracker.moeking.me:6969/announce

udp://tracker.bitsearch.to:1337/announce

udp://explodie.org:6969/announce

udp://tracker1.bt.moack.co.kr:80/announce

udp://tracker.tiny-vps.com:6969/announce

udp://tracker.altrosky.nl:6969/announce

udp://p4p.arenabg.com:1337/announce

udp://movies.zsw.ca:6969/announce

https://tracker.tamersunion.org:443/announce

https://tracker.moeblog.cn:443/announce

udp://tracker.theoks.net:6969/announce

http://tracker.files.fm:6969/announce

udp://fe.dealclub.de:6969/announce

http://tracker.bt4g.com:2095/announce

https://tracker.loligirl.cn:443/announce

udp://tracker.filemail.com:6969/announce

http://tracker.mywaifu.best:6969/announce

http://open.acgnxtracker.com:80/announce

Download: Indian.Police.Force.2024.S01.2160p.AMZN.WEB-DL.MULTi.DD+5.1.H.265-TheBiscuitMan




By using this site you agree to and accept our user agreement. If you havent read the user agreement please do so here